Search

Get more exposure on your uploaded files by "publishing" them.
They will show up here for others to search and find easily.

Search for
100 of 39653 files
User Name Size DLs Upload Date
mdir Virus Status: Clean 502.26 MB 1 2017-01-16 02:08:23
Description: uploaded with File Uploader (z-o-o-m.eu)
mdir Virus Status: Clean 513.69 MB 1 2017-01-16 02:05:59
Description: uploaded with File Uploader (z-o-o-m.eu)
mdir Virus Status: Clean 486.86 MB 1 2017-01-16 02:04:56
Description: uploaded with File Uploader (z-o-o-m.eu)
mdir Virus Status: Clean 495.56 MB 1 2017-01-16 02:01:29
Description: uploaded with File Uploader (z-o-o-m.eu)
mdir Virus Status: Clean 513.50 MB 2 2017-01-16 02:01:06
Description: uploaded with File Uploader (z-o-o-m.eu)
mdir Virus Status: Clean 531.68 MB 1 2017-01-16 01:59:42
Description: uploaded with File Uploader (z-o-o-m.eu)
mdir Virus Status: Clean 555.49 MB 2 2017-01-16 01:58:52
Description: uploaded with File Uploader (z-o-o-m.eu)
chicosana27 Virus Status: Clean 230.07 MB 1 2017-01-16 01:58:28
getmywarez Virus Status: Clean 14.25 MB 0 2017-01-16 00:04:27
Description: uploaded with File Uploader (z-o-o-m.eu)
xdrc45 Virus Status: Clean 742.76 KB 1 2017-01-16 00:00:23
xdrc45 Virus Status: Clean 15.15 MB 3 2017-01-15 23:59:50
susutun Virus Status: Clean 1.73 MB 27 2017-01-15 23:53:38
getmywarez Virus Status: Clean 1.33 MB 0 2017-01-15 23:42:39
Description: uploaded with File Uploader (z-o-o-m.eu)
xdrc45 Virus Status: Clean 742.76 KB 0 2017-01-15 23:39:02
susutun Virus Status: Clean 318.35 MB 1 2017-01-15 23:36:17
ramdas Virus Status: Clean 6.39 MB 2 2017-01-15 23:01:09
char.pudd Virus Status: Clean 247.20 MB 2 2017-01-15 22:58:35
SVP007 Virus Status: Clean 25.88 MB 4 2017-01-15 22:50:35
susutun Virus Status: Clean 183.34 MB 4 2017-01-15 21:54:58
susutun Virus Status: Clean 235.70 MB 7 2017-01-15 21:32:59
susutun Virus Status: Clean 235.36 MB 3 2017-01-15 21:23:54
susutun Virus Status: Clean 30.40 MB 1 2017-01-15 20:42:36
char.pudd Virus Status: Clean 242.65 MB 2 2017-01-15 20:26:50
mdir Virus Status: Clean 751.04 MB 0 2017-01-15 19:09:18
Description: uploaded with File Uploader (z-o-o-m.eu)
susutun Virus Status: Clean 255.63 MB 4 2017-01-15 19:08:06
susutun Virus Status: Clean 387.52 MB 2 2017-01-15 18:58:58
susutun Virus Status: Clean 416.65 MB 1 2017-01-15 18:53:01
demetris
Virus Status: Clean 274.73 MB 3 2017-01-15 18:45:02
Anonime Virus Status: Clean 10.45 MB 0 2017-01-15 17:41:33
UHD4K Virus Status: Clean 7.18 MB 0 2017-01-15 17:37:51
UHD4K Virus Status: Clean 14.11 MB 0 2017-01-15 17:36:03
Description: Format profile : High@L4.1 Duration : 1 h 28 min Bit rate : 4 000 kb/s Width : 1 024 pixels Height : 432 pixels Frame rate : 59.940 (59940/1000) FPS Stream size : 2.41 GiB (84%) Language : English
hedazilla Virus Status: Clean 3.49 MB 1 2017-01-15 17:33:45
UHD4K Virus Status: Clean 3.57 MB 0 2017-01-15 15:53:49
Description: Format profile : High@L4.1 Duration : 1 h 39 min Bit rate : 5 062 kb/s Width : 1 024 pixels Height : 424 pixels Frame rate : 59.940 (60000/1001) FPS Stream size : 3.43 GiB (91%) Language : English
getmywarez Virus Status: Clean 29.24 MB 0 2017-01-15 13:26:02
Description: uploaded with File Uploader (z-o-o-m.eu)
kampungbendungan Virus Status: Clean 1.78 KB 0 2017-01-15 13:06:57
kampungbendungan Virus Status: Clean 1.78 KB 0 2017-01-15 13:04:59
hosam kashto Virus Status: Clean 605.21 MB 2 2017-01-15 13:04:18
getmywarez Virus Status: Clean 90.93 MB 0 2017-01-15 12:36:19
Description: uploaded with File Uploader (z-o-o-m.eu)
hosam kashto Virus Status: Clean 52.18 KB 15 2017-01-15 11:53:25
hosam kashto Virus Status: Clean 5.89 MB 34 2017-01-15 11:17:46
hosam kashto Virus Status: Clean 4.45 MB 23 2017-01-15 11:17:45
hosam kashto Virus Status: Clean 5.86 MB 18 2017-01-15 11:17:45
hosam kashto Virus Status: Clean 4.48 MB 22 2017-01-15 11:17:45
hosam kashto Virus Status: Clean 5.86 MB 20 2017-01-15 11:17:45
hosam kashto Virus Status: Clean 5.87 MB 16 2017-01-15 11:17:45
hosam kashto Virus Status: Clean 4.45 MB 23 2017-01-15 11:17:45
hosam kashto Virus Status: Clean 4.49 MB 19 2017-01-15 11:17:44
hosam kashto Virus Status: Clean 4.45 MB 15 2017-01-15 11:17:44
hosam kashto Virus Status: Clean 23.14 KB 15 2017-01-15 10:56:10
hosam kashto Virus Status: Clean 53.24 KB 14 2017-01-15 10:56:10
hosam kashto Virus Status: Clean 54.36 KB 15 2017-01-15 10:56:10
hosam kashto Virus Status: Clean 50.68 KB 12 2017-01-15 10:56:10
hosam kashto Virus Status: Clean 375.24 KB 14 2017-01-15 10:56:10
hosam kashto Virus Status: Clean 85.83 KB 13 2017-01-15 10:56:09
hosam kashto Virus Status: Clean 834.34 KB 19 2017-01-15 10:56:09
hosam kashto Virus Status: Clean 27.20 KB 13 2017-01-15 10:56:09
hosam kashto Virus Status: Clean 67.15 KB 17 2017-01-15 10:56:09
hosam kashto Virus Status: Clean 71.22 KB 14 2017-01-15 10:56:09
hosam kashto Virus Status: Clean 299.00 KB 13 2017-01-15 10:56:09
hosam kashto Virus Status: Clean 161.63 KB 13 2017-01-15 10:56:09
hosam kashto Virus Status: Clean 37.05 KB 14 2017-01-15 10:56:08
hosam kashto Virus Status: Clean 36.75 KB 10 2017-01-15 10:56:08
hosam kashto Virus Status: Clean 8.27 KB 12 2017-01-15 10:56:08
hosam kashto Virus Status: Clean 2.47 MB 14 2017-01-15 10:56:08
hosam kashto Virus Status: Clean 2.47 MB 12 2017-01-15 10:56:08
hosam kashto Virus Status: Clean 65.53 KB 11 2017-01-15 10:56:08
hosam kashto Virus Status: Clean 2.40 MB 13 2017-01-15 10:56:08
hosam kashto Virus Status: Clean 86.78 KB 12 2017-01-15 10:56:08
hosam kashto Virus Status: Clean 20.01 KB 12 2017-01-15 10:56:07
hosam kashto Virus Status: Clean 61.18 KB 11 2017-01-15 10:56:07
hosam kashto Virus Status: Clean 13.86 KB 11 2017-01-15 10:56:07
hosam kashto Virus Status: Clean 23.41 KB 11 2017-01-15 10:56:07
hosam kashto Virus Status: Clean 43.08 KB 16 2017-01-15 10:56:07
hosam kashto Virus Status: Clean 1.77 MB 14 2017-01-15 10:56:07
hosam kashto Virus Status: Clean 41.30 KB 12 2017-01-15 10:56:07
hosam kashto Virus Status: Clean 21.53 KB 15 2017-01-15 10:56:06
hosam kashto Virus Status: Clean 17.12 KB 14 2017-01-15 10:56:06
hosam kashto Virus Status: Clean 17.11 KB 15 2017-01-15 10:56:06
hosam kashto Virus Status: Clean 17.07 KB 12 2017-01-15 10:56:06
hosam kashto Virus Status: Clean 27.09 KB 10 2017-01-15 10:56:06
hosam kashto Virus Status: Clean 35.21 KB 13 2017-01-15 10:56:06
hosam kashto Virus Status: Clean 38.78 KB 12 2017-01-15 10:56:06
hosam kashto Virus Status: Clean 12.39 KB 10 2017-01-15 10:56:05
hosam kashto Virus Status: Clean 34.07 KB 11 2017-01-15 10:56:05
hosam kashto Virus Status: Clean 34.03 KB 11 2017-01-15 10:56:05
hosam kashto Virus Status: Clean 13.93 KB 10 2017-01-15 10:56:05
hosam kashto Virus Status: Clean 32.70 KB 12 2017-01-15 10:56:05
hosam kashto Virus Status: Clean 23.38 KB 10 2017-01-15 10:56:05
hosam kashto Virus Status: Clean 35.89 KB 10 2017-01-15 10:56:04
hosam kashto Virus Status: Clean 40.65 KB 14 2017-01-15 10:56:04
hosam kashto Virus Status: Clean 1.55 MB 12 2017-01-15 10:52:58
hosam kashto Virus Status: Clean 42.40 KB 11 2017-01-15 10:52:58
hosam kashto Virus Status: Clean 70.63 KB 9 2017-01-15 10:52:58
hosam kashto Virus Status: Clean 2.27 MB 12 2017-01-15 10:52:57
hosam kashto Virus Status: Clean 30.81 KB 13 2017-01-15 10:52:57
hosam kashto Virus Status: Clean 1.22 MB 11 2017-01-15 10:52:57
hosam kashto Virus Status: Clean 2.91 KB 10 2017-01-15 10:52:57
hosam kashto Virus Status: Clean 31.09 KB 14 2017-01-15 10:52:57
hosam kashto Virus Status: Clean 5.03 KB 21 2017-01-15 10:52:57
hosam kashto Virus Status: Clean 51.73 KB 14 2017-01-15 10:52:57